#TITLE:Black Rock Shooter;
#SUBTITLE:;
#ARTIST:Unknown artist;
#TITLETRANSLIT:;
#SUBTITLETRANSLIT:;
#ARTISTTRANSLIT:;
#CREDIT:;
#BANNER:;
#BACKGROUND:;
#LYRICSPATH:;
#CDTITLE:;
#MUSIC:Black Rock Shooter.mp3;
#OFFSET:-0.569;
#SAMPLESTART:36.850;
#SAMPLELENGTH:12.000;
#SELECTABLE:YES;
#BPMS:0.000=165.375;
#STOPS:;
#BGCHANGES:0.000=Black Rock Shooter.avi=1.000=1=1=0,
99999=-nosongbg-=1.000=0=0=0 // don't automatically add -songbackground-
;
// cache tags:
#FIRSTBEAT:0.000;
#LASTBEAT:239.500;
#SONGFILENAME:Songs/sdo pack 6/Black Rock Shooter/Black Rock Shooter.sm;
#HASMUSIC:1;
#HASBANNER:0;
#MUSICLENGTH:89.077;
// end cache tags

//---------------dance-single - ----------------
#NOTES:
     dance-single:
     :
     Medium:
     1:
     1.000,1.000,1.000,0.258,1.000,496.000,145.000,23.000,0.000,3.000:  // measure 1
2000
0000
0000
0000
3000
0010
0000
0010
0100
0000
0001
1000
0000
0010
0100
0001
,  // measure 2
0000
0100
0010
1000
0000
0001
0000
0100
0010
0000
0001
1000
0010
0000
0000
0101
,  // measure 3
0000
0101
0000
0000
1010
0000
0001
0100
0000
0110
0000
0000
1001
0000
0000
0000
,  // measure 4
0110
0000
0000
0000
1001
0000
0000
0000
0110
0000
0000
0002
0000
0000
0000
0000
,  // measure 5
0000
0003
0010
0010
0000
0100
0000
1000
0100
0010
0010
0000
0100
0001
0000
0000
,  // measure 6
1000
0000
0010
0010
0000
0100
0000
0001
0000
1000
0000
0100
0000
0010
0010
0000
,  // measure 7
0010
0000
0010
0000
0010
0000
0010
0000
0010
0010
0000
0010
0000
0100
0000
0100
,  // measure 8
1000
0100
0000
0010
0010
0000
0100
0001
0000
0001
0000
0100
0000
0010
0000
0010
,  // measure 9
1000
0001
0000
0000
0110
0000
0000
0000
0101
0000
0000
0000
0110
0000
0000
0000
,  // measure 10
1001
0000
0000
0000
0000
0110
0000
0000
0101
0000
0000
1010
0000
1001
0000
0000
,  // measure 11
0000
0110
0101
0000
1001
0000
0000
0000
0110
0000
0101
0000
1010
0000
0000
0000
,  // measure 12
0101
0000
0101
0000
1010
0000
0000
0000
0001
0100
0000
0000
0110
0000
0000
0000
,  // measure 13
1001
0000
0110
0101
1001
0000
0110
0001
,  // measure 14
0101
0000
0000
0000
1020
0000
0000
0030
0200
0000
0000
0000
0302
0000
0000
0000
,  // measure 15
0000
0003
0010
0000
0110
0000
0100
0000
0000
1000
0000
0010
0010
0000
0100
0000
,  // measure 16
0001
0000
0001
0010
1000
0100
0000
0000
0010
0000
0010
0000
0100
0000
1000
0000
,  // measure 17
0200
0000
0000
0000
0000
0300
0010
0010
0000
0001
0010
0000
1100
0000
0100
0010
,  // measure 18
0010
0000
0100
0000
0001
0010
0100
1000
0100
0000
0010
0000
0000
0100
0000
0010
,  // measure 19
0000
0001
0010
1000
0100
0000
0010
0000
0010
0000
0100
0001
0010
1000
0100
0010
,  // measure 20
0000
0010
0000
0100
0001
0010
0000
1000
0100
0010
0000
0010
0100
0000
0001
0000
,  // measure 21
0100
0010
0000
0010
1000
0000
0100
0001
0010
0000
0100
0000
0010
1010
0000
0100
,  // measure 22
0000
0010
0100
0001
0010
0000
1000
0010
0000
0010
0100
0000
0001
0010
1000
0000
,  // measure 23
0000
0010
0010
0100
0000
0001
0100
0010
0000
1000
0000
0100
0000
0010
0000
0010
,  // measure 24
0000
0001
0100
1000
0100
0000
0010
0010
0000
0000
0101
0000
0000
0000
1010
0000
,  // measure 25
0000
0000
0101
0000
0000
1010
0000
0001
1000
0110
0000
0101
0000
1010
0000
0101
,  // measure 26
0000
0110
0000
1001
0000
0110
0000
1001
0000
0110
0000
1001
0000
0110
0101
0000
,  // measure 27
0000
1010
0001
1000
0010
0100
0101
0000
0010
1000
0001
0000
0110
0000
0000
1001
,  // measure 28
0000
1001
0000
0110
0000
0100
0001
1001
0000
0000
0110
0000
1001
1000
0001
0000
,  // measure 29
0110
0000
0101
1000
0110
0000
0101
0000
0110
0000
1001
0000
0110
0000
1001
0000
,  // measure 30
0110
0000
0101
0000
1010
0100
0001
0100
0001
0000
1010
0000
1001
0000
0111
0000
,  // measure 31
0000
0000
0000
1101
0110
0000
0000
0000
0101
0000
0110
0000
0000
0000
0110
0110
,  // measure 32
1000
0000
0010
1100
0000
0101
0000
0110
0000
0010
1000
1001
0000
0110
0000
1001
,  // measure 33
0000
0110
0000
0000
1101
0000
0010
0101
0000
1010
0000
0000
0101
0010
0100
1001
,  // measure 34
0000
0110
0000
1001
0000
0110
0000
1001
0000
0110
0000
0101
0000
0101
0000
0010
,  // measure 35
1000
0001
1000
0000
0110
0000
0101
0000
1001
0000
0110
0100
0010
0000
1001
0000
,  // measure 36
0110
0000
1001
0000
0110
0001
1000
0000
0110
0000
1001
0000
1010
0000
0101
0000
,  // measure 37
0100
0010
1001
0000
0100
0010
0000
1001
0000
0110
0000
1001
0000
0110
0000
1001
,  // measure 38
0000
0010
0100
0000
0202
0000
0000
0000
0303
0000
0000
0000
2020
0000
0000
0000
,  // measure 39
0000
3030
0000
0110
0000
0110
0000
0110
0000
0110
0000
0110
0000
0000
0002
0000
,  // measure 40
0000
0000
0000
0003
0010
0010
0000
2000
0000
0100
3010
0000
0010
0000
0200
0000
,  // measure 41
0000
0000
0000
0000
0310
0020
0000
0000
0000
0000
0000
1030
0000
0100
0100
0020
,  // measure 42
0000
0000
0000
0000
0030
0200
0000
0000
0000
0300
0001
0000
0001
0000
1000
0100
,  // measure 43
0010
0000
0010
0000
0100
0001
0010
0000
1000
0100
0000
0010
0010
0000
0100
0000
,  // measure 44
0000
0010
0010
0000
0100
0000
1000
0100
0010
0000
0010
0100
0001
0000
0010
0100
,  // measure 45
0200
0000
0000
0310
0000
0000
0011
2000
0000
0000
0000
3010
0000
0011
0000
0200
,  // measure 46
0000
0000
0310
0000
0010
1000
0200
0000
0000
0000
0000
0310
0000
0001
0010
1000
,  // measure 47
0000
0100
0010
0010
0000
0100
0000
0010
0001
0010
0100
1000
0100
0000
0010
0000
,  // measure 48
0010
0100
0000
0010
0000
0100
0001
1000
0001
0000
0100
0010
0000
0000
0100
0000
,  // measure 49
0010
0000
0010
0000
1000
0000
0200
0000
0000
0000
0300
0010
0010
0000
0011
0000
,  // measure 50
1000
0200
0000
0000
0000
0000
0310
0000
0000
0000
1000
0010
0000
0010
0000
0001
,  // measure 51
0010
0000
0100
0100
0010
0000
1000
0100
0000
0010
0010
0000
0200
0000
0000
0000
,  // measure 52
0000
0000
0000
0310
0000
0010
0000
0011
1000
0000
0100
0010
0010
0000
0100
0011
,  // measure 53
0000
0100
0010
0000
0010
0000
0000
1100
0010
0000
0001
0010
0100
0010
0000
0000
,  // measure 54
0100
0000
0010
0000
0001
1000
0000
0010
0000
0110
0000
0010
0000
0100
0000
0001
,  // measure 55
0000
0000
0010
0000
0010
0000
0000
0010
0000
0010
0100
0000
0100
0000
1010
0000
,  // measure 56
0100
0010
0000
0010
0100
0001
0010
0000
0010
0000
0010
1000
0100
0010
0000
0011
,  // measure 57
0000
0100
0000
0010
0010
0000
0100
1000
0000
0110
0000
0011
0000
0001
0000
0100
,  // measure 58
0000
1000
0100
0010
0000
0010
0000
0011
0000
0100
1000
0100
0000
0010
0000
0110
,  // measure 59
0000
0000
0001
1000
1001
0000
0000
0000
0110
0110
0000
0000
0000
1001
0000
0001
,  // measure 60
0000
0000
0110
0000
0000
0001
1100
0000
0000
0000
0110
0000
0000
0000
0001
0000
;
